Vu+
  1. This site uses cookies. By continuing to use this site, you are agreeing to our use of cookies. Learn More.

Trzaski w głośnikach podczas odtwarzania plików mp4

Discussion in 'Vu+ Oficialne image' started by jwlalek, Aug 9, 2013.

  1. jwlalek

    jwlalek Vu+ User

    Messages:
    438
    Witam. Posiadam VU+ Duo 2 z BH 2.0.5. Problem polega na tym, że podczas odtwarzania niektórych plików mp4 w głosnikach słyszę trzaski. Problem ten dotyczy SPDIF jak i HDMI. Ten sam plik odtwarzany z komputera lub na innym dekoderze jest odtwarzany bez jakichkolwiek zakłóceń.
    Plik mp4, którego problem dotyczy to "Naughty Boy Ft. Sam Smith - La La La" (1920x1080) ściągnięty z YouTube poprzez plugin "Freemake Video Downloader" (Mozilla Firefox).
    Jeśli ktoś z Was mógłby sobie ściągnąć ten utwór (129MB) i sprawdzić na jakimś sprzęcie Hi-Fi to byłbym bardzo wdzięczny. Nie daje mi to spokoju bo sprzęt nóweczka a tu takie numery :confused:
    Ten sam temat poruszyłem na ogólnym forum ale jak do tej pory nikt nie odpowiedział :help:

    Pozdrowienia dla wszystkich Polaków!
     
  2. bogdanm

    bogdanm Moderator

    Messages:
    2,204
    Troche dziwne ze nie smiga moze byc cos z draiverami moglbys jakies wieksze info podac o tym pliku ? Majlpeije z jakiegos programu co go odtwarza np. BestPlazer.
    Ja teraz nie mam duo2 by sprobowac ale polukam na duo
     
  3. jwlalek

    jwlalek Vu+ User

    Messages:
    438
    Sterowniki powinny być OK bo je ostatnio aktualizowałem.

    Media info z programu KMPlayer:
    Code:
      General
          Format : MPEG-4
          Format profile : Base Media / Version 2
          Codec ID : mp42
          File size : 124 MiB
          Duration : 4mn 3s
          Overall bit rate : 4 250 Kbps
          Encoded date : UTC 2013-05-02 00:10:38
          Tagged date : UTC 2013-05-02 00:10:38
          gsst : 0
          gstd : 244063
          gssd : B027FFC87HH1374262837706317
          gshh : r4---sn-cn3tc-ajte.c.youtube.com
      Video #1
          ID : 1
          Format : AVC
          Format/Info : Advanced Video Codec
          Format profile : High@L4.0
          Format settings, CABAC : Yes
          Format settings, ReFrames : 1 frame
          Codec ID : avc1
          Codec ID/Info : Advanced Video Coding
          Duration : 4mn 3s
          Bit rate mode : Variable
          Bit rate : 4 056 Kbps
          Maximum bit rate : 8 680 Kbps
          Width : 1 920 pixels
          Height : 1 080 pixels
          Display aspect ratio : 16:9
          Frame rate mode : Constant
          Frame rate : 25.000 fps
          Resolution : 24 bits
          Colorimetry : 4:2:0
          Scan type : Progressive
          Bits/(Pixel*Frame) : 0.078
          Stream size : 118 MiB (95%)
          Tagged date : UTC 2013-05-02 00:11:12
      Audio #2
          ID : 2
          Format : AAC
          Format/Info : Advanced Audio Codec
          Format version : Version 4
          Format profile : LC
          Format settings, SBR : No
          Codec ID : 40
          Duration : 4mn 3s
          Bit rate mode : Variable
          Bit rate : 192 Kbps
          Maximum bit rate : 202 Kbps
          Channel(s) : 2 channels
          Channel positions : L R
          Sampling rate : 44.1 KHz
          Resolution : 16 bits
          Stream size : 5.58 MiB (5%)
          Title : IsoMedia File Produced by Google, 5-11-2011
          Encoded date : UTC 2013-05-02 00:11:04
          Tagged date : UTC 2013-05-02 00:11:12
     
  4. bogdanm

    bogdanm Moderator

    Messages:
    2,204
    Piszac sterowniki myslelem o tym ze cos w sterownikach od producenta jest ze nie smiga juz tak byl kilka razy ze jeden plik z mojego dysku frezowal na jednych na drugich dzialal ok.
     
  5. jwlalek

    jwlalek Vu+ User

    Messages:
    438
    Doszedłem do wniosku, że wina nie leży po stronie BH tylko samego dekodera. Wgrałem oryginalne oprogramowanie i problem jest ten sam. Czy powinienem gdzieś to zgłosić (producent lub sprzedawca) aby naprawili ten problem?
     
  6. bogdanm

    bogdanm Moderator

    Messages:
    2,204
    Zawsze mozesz napisac do suportu VU+ nie pamietem teraz emaila do nich ale napewno znjaduje sie na stronie VU+. Taki emial dojdzie do developerow orginalnego oprogrmowania i pewno cos poradza.
    Mozesz tez dla testow zapodac image PLI bo to image ma swoj kernel itd wiec czasami moze to smigac na nim.
     
  7. jwlalek

    jwlalek Vu+ User

    Messages:
    438
    Mail wysłany do twórców VU+. Na razie nie będę sprawdzał innego image, poczekam na odpowiedź. Dzięki i pozdrawiam.
     
  8. bogdanm

    bogdanm Moderator

    Messages:
    2,204
    Nie zaszkodzi jesli w wolnej chwili potestujesz bo tak jak mowie Bh i VTi bazuje na orginalnym oprogramowaniu . OpenPli czy Vix bazupli na pli
     
  9. jwlalek

    jwlalek Vu+ User

    Messages:
    438
    A nie wiesz jak to jest np. z OpenPli? Czy bezpośrednio mogę zainstalować to image czy muszę wcześniej coś sprawdzać i wgrywać?
     
  10. jwlalek

    jwlalek Vu+ User

    Messages:
    438
    A więc po zainstalowaniu VIX, problem pozostaje, wina leży po stronie producenta :(
     
  11. jwlalek

    jwlalek Vu+ User

    Messages:
    438
    OpenPLi to samo :(
     
  12. bogdanm

    bogdanm Moderator

    Messages:
    2,204
    No to stery zapewne ok zglosze jeszcze raz koderowi i napisze do BU+ zobaczymy co z tego bedzie.
     
  13. jwlalek

    jwlalek Vu+ User

    Messages:
    438
    Najnowsze stery (19.08.2013) niestety nie rozwiązują problemu :mad:
     
  14. bogdanm

    bogdanm Moderator

    Messages:
    2,204
    Zobaczymy co bedzie trzeba troche poczekac bo jest jakas gradacja tego co robia.
    Nie sa wstanie zajac sie np twym problemem jesli maja cos innego do roboty.
     
  15. jwlalek

    jwlalek Vu+ User

    Messages:
    438
    Spoko, wiem o tym :D Mam tylko nadzieję, że problem dotyczy nie tylko mojego sprzętu. Jeśli duża ilość ludzi zgłosi ten problem to jest szansa aby to naprawili.
     
  16. bogdanm

    bogdanm Moderator

    Messages:
    2,204
    A moze ktos z kolegow ma inne uwagi; piszcie przekaze sie do VU+.
    Sezon ogorkowy sie konczy wiec pewno beda dzialac pelna para w VU+.
     
  17. jwlalek

    jwlalek Vu+ User

    Messages:
    438
    Jeśli ktoś z Was posiada dekoder podłączony do Hi-Fi to czy mógłbym go prosić o sprawdzenie utworu "Naughty Boy ft. Sam Smith - La La La" ?
    Możecie to w prosty sposób zrobić używając wtyczki MyTube.
    Nie mam możliwości sprawdzenia tego na innym sprzęcie VU+ więc może ktoś z Was mógłby mi w ten sposób pomóc? Proszę, jest to bardzo ważne dla mnie a sytuacja w jakiej stawia mnie mój dekoder jest niesmaczna i czasami odchodzi mi ochota na słuchanie muzyki, w której dodatkowo słyszę niechciane dźwięki.
     
  18. jwlalek

    jwlalek Vu+ User

    Messages:
    438
    Nie musi to być powyższy utwór, może to być każde inne mp4 w HD. Czy ktoś może to sprawdzić na swoim sprzęcie?
     
  19. bogdanm

    bogdanm Moderator

    Messages:
    2,204
    Ja ostatnio wpiolem duo poprzez scart do tv i tez dzwiek mi warjuje czyli mam cos takiego jak by wysokie tony wyostrzalo a potem wystepuja trzaski. Po przelaczeniu na inny kanal i spowrotem na ten co byl wczesniej problem ustaje na tym kanale.
     
  20. jwlalek

    jwlalek Vu+ User

    Messages:
    438
    U mnie tylko podczas odtwarzania mp4 w HD (teledyski) na Hi-Fi.
    Na TV nie ma żadnych problemów, tylko co to za słuchanie muzy z TV :lol:
     

Share This Page